Transformers

Transformers (1984)

Animation General, Action, Adventure

Full description

Transformers 4 L Era Dell Estinzione 2014 iTALiAN MD WEBDL 720(TeamPremiumCracking)

Size 3.579 GB   4 seeders     Added 2014-09-17 04:26:02

Visita il nostro sito 
http://teampremiumcracking.altervista.org/

















kostenlos bilder hochladen
General
Unique ID : 222444624986877390168118549669703283632 (0xA75946C3A8BDC3EB82CF827D054773B0)
Complete name : C:\Users\Administrator\Downloads\Video\Transformers.4.L.Era.Dell.Estinzione.2014.iTALiAN.MD.WEBDL.720(TeamPremiumCracking)\Transformers.4.L.Era.Dell.Estinzione.2014.iTALiAN.MD.WEBDL.720(TeamPremiumCracking).mkv
Format : Matroska
Format version : Version 4 / Version 2
File size : 3.33 GiB
Duration : 2h 45mn
Overall bit rate : 2 879 Kbps
Movie name : Transformers.4.L.Era.Dell.Estinzione.2014.iTALiAN.MD.WEBDL.720(TeamPremiumCracking).mkv
Encoded date : UTC 2014-09-16 18:36:20
Writing application : mkvmerge v7.2.0 ('On Every Street') 64bit built on Sep 13 2014 15:52:10
Writing library : libebml v1.3.0 + libmatroska v1.4.1
DURATION : 02:45:06.600000000
NUMBER_OF_FRAMES : 412775
NUMBER_OF_BYTES : 158505600
_STATISTICS_WRITING_APP : mkvmerge v7.2.0 ('On Every Street') 64bit built on Sep 13 2014 15:52:10
_STATISTICS_WRITING_DATE_UTC : 2014-09-16 18:36:20
_STATISTICS_TAGS : BPS DURATION NUMBER_OF_FRAMES NUMBER_OF_BYTES

Video
ID : 2
Format : AVC
Format/Info : Advanced Video Codec
Format profile : High@L4.1
Format settings, CABAC : Yes
Format settings, ReFrames : 5 frames
Codec ID : V_MPEG4/ISO/AVC
Duration : 2h 45mn
Bit rate : 2 750 Kbps
Width : 1 280 pixels
Height : 536 pixels
Display aspect ratio : 2.40:1
Frame rate mode : Constant
Frame rate : 23.976 fps
Color space : YUV
Chroma subsampling : 4:2:0
Bit depth : 8 bits
Scan type : Progressive
Bits/(Pixel*Frame) : 0.167
Stream size : 3.12 GiB (94%)
Writing library : x264 core 142 r2431 ac76440
Encoding settings : cabac=1 / ref=5 / deblock=1:-1:-1 / analyse=0x3:0x113 / me=umh / subme=6 / psy=1 / psy_rd=1.00:0.00 / mixed_ref=1 / me_range=30 / chroma_me=1 / trellis=1 / 8x8dct=1 / cqm=2 / deadzone=21,11 / fast_pskip=0 / chroma_qp_offset=-2 / threads=12 / lookahead_threads=3 / sliced_threads=0 / nr=0 / decimate=0 / interlaced=0 / bluray_compat=0 / constrained_intra=0 / bframes=5 / b_pyramid=2 / b_adapt=2 / b_bias=0 / direct=3 / weightb=1 / open_gop=0 / weightp=2 / keyint=240 / keyint_min=23 / scenecut=40 / intra_refresh=0 / rc_lookahead=50 / rc=2pass / mbtree=1 / bitrate=2750 / ratetol=1.0 / qcomp=0.60 / qpmin=1 / qpmax=69 / qpstep=4 / cplxblur=20.0 / qblur=0.5 / vbv_maxrate=62500 / vbv_bufsize=78125 / nal_hrd=none / filler=0 / ip_ratio=1.40 / aq=1:1.00
Language : English
Default : Yes
Forced : No

Audio
ID : 1
Format : MPEG Audio
Format version : Version 1
Format profile : Layer 3
Mode : Joint stereo
Codec ID : A_MPEG/L3
Codec ID/Hint : MP3
Duration : 2h 45mn
Bit rate mode : Constant
Bit rate : 128 Kbps
Channel(s) : 2 channels
Sampling rate : 48.0 KHz
Compression mode : Lossy
Stream size : 152 MiB (4%)
Language : Italian
Default : Yes
Forced : No
DURATION : 02:45:42.391000000
NUMBER_OF_FRAMES : 238379
NUMBER_OF_BYTES : 3417413930
_STATISTICS_WRITING_APP : mkvmerge v7.2.0 ('On Every Street') 64bit built on Sep 13 2014 15:52:10
_STATISTICS_WRITING_DATE_UTC : 2014-09-16 18:36:20
_STATISTICS_TAGS : BPS DURATION NUMBER_OF_FRAMES NUMBER_OF_BYTES

Transformers.4.L.Era.Dell.Estinzione.2014.iTALiAN.MD.WEBDL.720(TeamPremiumCracking)/Transformers.4.L.Era.Dell.Estinzione.2014.iTALiAN.MD.WEBDL.720(TeamPremiumCracking).mkv 3.578 GB
Transformers.4.L.Era.Dell.Estinzione.2014.iTALiAN.MD.WEBDL.720(TeamPremiumCracking)/Transformers.4.L.Era.Dell.Estinzione.2014.iTALiAN.MD.WEBDL.720(TeamPremiumCracking).mkv_thumbs_[2014.09.16_20.51.56].jpg 115.248 KB
Transformers.4.L.Era.Dell.Estinzione.2014.iTALiAN.MD.WEBDL.720(TeamPremiumCracking)/Transformers.4.L.Era.Dell.Estinzione.2014.iTALiAN.MD.WEBDL.720(TeamPremiumCracking).mkv_snapshot_01.09.13_[2014.09.16_20.53.55].jpg 105.436 KB
Gathering some info...

Register and log in Isohunt and see no captcha anymore!

4000 symbols left
Hash 61cdebd2b053fcc7148e2bc9d0be3ed1519605b5

Related torrents for "Transformers 4 L Era Dell Estinzione 2014 iTALiAN MD WEBDL 720(TeamPremiumCracking)"

Torrent search:

italian hd 2014 web-dl