imdb
rating

7.8
Captain America: The Winter Soldier

Captain America: The Winter Soldier (2014)

Action, Adventure, Science Fiction

Full description
quality   dvdrip hd dvd screener x264 bd

Captain America: The Winter Soldier *2014*(48FPS)[1080p.DTS-HD MA.7.1.AC3.Custom.BluRay.x264-LEON 345]

Size 31.449 GB   2 seeders     Added 2016-04-18 17:01:02

Kapitan Ameryka: Zimowy żołnierz - Captain America:The Winter Soldier*2014*PL
 1080p.BDRip(48FPS)DTS 5.1.Custom - Leon 345
 ==============================================
 !!!!!!!!!!!!!48 FPS !!!!!!!!!!!!!!!!!!!!!!!!!
 ==============================================

[img]image[/img]

 Produkcja: USA
 Premiera: 13 marca 2014 (świat)
 Reżyseria: Anthony Russo, Joe Russo
 Scenariusz: Christopher Markus, Stephen McFeely
 Gatunek: Akcja, Sci-Fi

http://www.imdb.com/title/tt1843866/

 Marvel Studios, wytwórnia, w której zrodził się najlepszy film o superbohaterach w historii kina - "Avengers" - przedstawia nowy fenomen na skalę światową. W efektownym hicie "Kapitan Ameryka: Zimowy żołnierz", Kapitan Ameryka (Chris Evans) połączy siły z Czarną Wdową (Scarlett Johansson) oraz najnowszym sojusznikiem Falconem (Anthony Mackie). Po zakończonej sukcesem bitwie o Nowy Jork Steve Rogers, alias Kapitan Ameryka, przenosi się do Waszyngtonu i próbuje przyzwyczaić się do życia w nowoczesnym świecie. Jednak kiedy dochodzi do ataku na jego przełożonego z organizacji T.A.R.C.Z.A., Steve zostaje uwikłany w sieć intryg zagrażających całemu światu. Teraz Kapitan Ameryka, Czarna Wdowa i Falcon będą musieli połączyć siły, żeby pokonać Zimowego Żołnierza - najbardziej tajemniczą i najpotężniejszą jak do tej pory broń swojego podstępnego wroga.

 Obsada:

 Chris Evans - Steve Rogers / Kapitan Ameryka 
 Samuel L. Jackson - Nick Fury 
 Scarlett Johansson - Natasha Romanoff / Czarna Wdowa 
 Robert Redford - Alexander Pierce 
 Sebastian Stan - Bucky Barnes / Zimowy Żołnierz 
 Anthony Mackie - Sam Wilson / Falcon 
 Cobie Smulders - Maria Hill 
 Frank Grillo - Brock Rumlow

 General

 Format : Matroska
 Format version : Version 2
 File size : 29.3 GiB
 Duration : 2h 15mn
 Overall bit rate : 30.9 Mbps
 Movie name : WINTER.SOLDIER.BDRip.1080p(48FPS)Custom.Leon345
 Encoded date : UTC 2016-04-14 12:40:28
 Writing application : mkvmerge v5.7.0 ('The Whirlwind') built on Jul 8 2012 20:08:51
 Writing library : libebml v1.2.3 + libmatroska v1.3.0

 Video
 ID : 1
 Format : AVC
 Format/Info : Advanced Video Codec
 Format profile : High@L4.1
 Format settings, CABAC : Yes
 Format settings, ReFrames : 4 frames
 Codec ID : V_MPEG4/ISO/AVC
 Duration : 2h 15mn
 Nominal bit rate : 22.5 Mbps
 Width : 1 920 pixels
 Height : 1 080 pixels
 Display aspect ratio : 16:9 (OAR 2.39:1)
 Frame rate mode : Constant
 Frame rate : 47.952 (48000/1001) fps
 Color space : YUV
 Chroma subsampling : 4:2:0
 Bit depth : 8 bits
 Scan type : Progressive
 Bits/(Pixel*Frame) : 0.227
 Writing library : x264 
 Encoding settings : cabac=1 / ref=4 / deblock=1:-1:-1 / rc=2pass
 Default : Yes
 Forced : No

 Audio #1
 ID : 2
 Format : AC-3
 Format/Info : Audio Coding 3
 Mode extension : CM (complete main)
 Format settings, Endianness : Big
 Codec ID : A_AC3
 Duration : 2h 15mn
 Bit rate mode : Constant
 Bit rate : 640 Kbps
 Channel(s) : 6 channels
 Channel positions : Front: L C R, Side: L R, LFE
 Sampling rate : 48.0 KHz
 Compression mode : Lossy
 Stream size : 622 MiB (2%)
 Title : AC3 5.1 Lektor PL custom
 Language : Polish
 Default : Yes
 Forced : Yes

 Audio #2
 ID : 3
 Format : AC-3
 Format/Info : Audio Coding 3
 Mode extension : CM (complete main)
 Format settings, Endianness : Big
 Codec ID : A_AC3
 Duration : 2h 15mn
 Bit rate mode : Constant
 Bit rate : 640 Kbps
 Channel(s) : 6 channels
 Channel positions : Front: L C R, Side: L R, LFE
 Sampling rate : 48.0 KHz
 Compression mode : Lossy
 Stream size : 622 MiB (2%)
 Title : AC3 5.1 Dubbing PL
 Language : Polish
 Default : No
 Forced : No

 Audio #3
 ID : 4
 Format : AC-3
 Format/Info : Audio Coding 3
 Mode extension : CM (complete main)
 Format settings, Endianness : Big
 Codec ID : A_AC3
 Duration : 2h 15mn
 Bit rate mode : Constant
 Bit rate : 640 Kbps
 Channel(s) : 6 channels
 Channel positions : Front: L C R, Side: L R, LFE
 Sampling rate : 48.0 KHz
 Compression mode : Lossy
 Stream size : 622 MiB (2%)
 Title : AC3 5.1 ENG
 Language : English
 Default : No
 Forced : No

 Audio #4
 ID : 5
 Format : AC-3
 Format/Info : Audio Coding 3
 Mode extension : CM (complete main)
 Format settings, Endianness : Big
 Codec ID : A_AC3
 Duration : 2h 15mn
 Bit rate mode : Constant
 Bit rate : 192 Kbps
 Channel(s) : 2 channels
 Channel positions : Front: L R
 Sampling rate : 48.0 KHz
 Compression mode : Lossy
 Stream size : 187 MiB (1%)
 Title : AC3 2.0 Lektor PL VOD
 Language : Polish
 Default : No
 Forced : No

 Audio #5
 ID : 6
 Format : DTS
 Format/Info : Digital Theater Systems
 Mode : 16
 Format settings, Endianness : Big
 Codec ID : A_DTS
 Duration : 2h 15mn
 Bit rate mode : Constant
 Bit rate : 1 510 Kbps
 Channel(s) : 6 channels
 Channel positions : Front: L C R, Side: L R, LFE
 Sampling rate : 48.0 KHz
 Bit depth : 24 bits
 Compression mode : Lossy
 Stream size : 1.43 GiB (5%)
 Title : DTS 5.1 Lektor PL custom
 Language : Polish
 Default : No
 Forced : No

 Audio #6
 ID : 7
 Format : DTS
 Format/Info : Digital Theater Systems
 Format profile : MA / Core
 Mode : 16
 Format settings, Endianness : Big
 Codec ID : A_DTS
 Duration : 2h 15mn
 Bit rate mode : Variable / Constant
 Bit rate : 4767 / 1 509 Kbps
 Channel(s) : 8 channels / 6 channels
 Channel positions : Front: L C R, Side: L R, Back: L R, LFE / Front: L C R, Side: L R, LFE
 Sampling rate : 48.0 KHz
 Bit depth : 24 bits
 Compression mode : Lossless / Lossy
 Title : DTS-HD MA 7.1 ENG
 Language : English
 Default : No
 Forced : No

 Text #1
 ID : 8
 Format : UTF-8
 Codec ID : S_TEXT/UTF8
 Codec ID/Info : UTF-8 Plain Text
 Title : napisy PL
 Language : Polish
 Default : No
 Forced : No

 Text #2
 ID : 9
 Format : UTF-8
 Codec ID : S_TEXT/UTF8
 Codec ID/Info : UTF-8 Plain Text
 Title : napisy ENG
 Language : English
 Default : No
 Forced : No

 A/V-Captain America: The Winter Soldier(2014)PL.Custom BDRemux 1080p AVC DTS 5.1-Leon 345
Winter.Soldier.BDRip.1080p(48FPS)Custom.Leon345/Winter.Soldier.BDRip.1080p(48FPS)Custom.Leon345.mkv 31.449 GB
Winter.Soldier.BDRip.1080p(48FPS)Custom.Leon345/_The_Winter_Soldier(48FPS).jpg 105.58 KB
Winter.Soldier.BDRip.1080p(48FPS)Custom.Leon345/Torrent downloaded from agusiq-torrents.pl upload Leon345.txt 3.966 KB
Gathering some info...

Register and log in Isohunt and see no captcha anymore!

4000 symbols left
Hash 826bdb9a826ac1c54fbe948a514427d834f07944

Related torrents for "Captain America: The Winter Soldier *2014*(48FPS)[1080p.DTS-HD MA.7.1.AC3.Custom.BluRay.x264-LEON 345]"

Torrent search:

x264 hd fullhd bd 2014