imdb
rating

8.4
PitBull

PitBull (2005)

Drama, Action & Adventure

Full description

Pitbull - We Are One (Ole Ola) [The Official 2014 FIFA World Cup Song] feat. Jennifer Lopez & Claudia Leitte

Size 139.34 MB   1 seeders     Added 2016-10-23 14:51:24

General
Complete name : We Are One (Ole Ola) 
Format : MPEG-4
Format profile : Base Media
Codec ID : isom
File size : 131 MiB
Duration : 4mn 5s
Overall bit rate mode : Variable
Overall bit rate : 4 476 Kbps

--------------------------------------------------------------------------------
Video
ID : 1
Format : AVC
Format/Info : Advanced Video Codec
Format profile : High@L4.0
Format settings, CABAC : Yes
Format settings, ReFrames : 1 frame
Codec ID : avc1
Codec ID/Info : Advanced Video Coding
Duration : 4mn 5s
Bit rate : 4 403 Kbps
Width : 1 920 pixels
Height : 1 080 pixels
Display aspect ratio : 16:9
Frame rate mode : Constant
Frame rate : 23.976 fps
Color space : YUV
Chroma subsampling : 4:2:0
Bit depth : 8 bits
Scan type : Progressive
Bits/(Pixel*Frame) : 0.089
Stream size : 127 MiB (97%)
Writing library : x264 core 129

--------------------------------------------------------------------------------
Audio
ID : 2
Format : AAC
Format/Info : Advanced Audio Codec
Format profile : LC
Codec ID : 40
Duration : 4mn 5s
Duration_FirstFrame : 70ms
Bit rate mode : Variable
Bit rate : 144 Kbps
Maximum bit rate : 176 Kbps
Channel count : 2 channels
Channel positions : Front: L R
Sampling rate : 44.1 KHz
Compression mode : Lossy
Stream size : 4.29 MiB (3%)

--------------------------------------------------------------------------------
Total size : 131 MB (137,539,584 bytes)
--------------------------------------------------------------------------------
sub
We Are One (Ole Ola) .srt
--------------------------------------------------------------------------------
Encoded by Eisa
Music video by Pitbull feat. Jennifer Lopez & Claudia Leitte performing 
We Are One (Ole Ola)  
{ Olodum Mix}. (C) 2014 RCA Records, a division of Sony Music Entertainment
Pitbull - We Are One (Ole Ola) [The Official 2014 FIFA World Cup Song] feat. Jennifer Lopez & Claudia Leitte/We Are One (Ole Ola) [The Official 2014 FIFA World Cup Song] .mp4 137.539 MB
Pitbull - We Are One (Ole Ola) [The Official 2014 FIFA World Cup Song] feat. Jennifer Lopez & Claudia Leitte/We Are One (Ole Ola) [The Official 2014 FIFA World Cup Song] cover.png 628.407 KB
Pitbull - We Are One (Ole Ola) [The Official 2014 FIFA World Cup Song] feat. Jennifer Lopez & Claudia Leitte/We Are One (Ole Ola) [The Official 2014 FIFA World Cup Song](4).jpg 255.161 KB
Gathering some info...

Register and log in Isohunt and see no captcha anymore!

4000 symbols left
Hash ba059ab150c0c93ce8c3ffe586dd054fcd3be8f0

Related torrents for "Pitbull - We Are One (Ole Ola) [The Official 2014 FIFA World Cup Song] feat. Jennifer Lopez & Claudia Leitte"

Torrent search:

2014