imdb
rating

6.4
Rio 2

Rio 2 (2014)

Animation, Family

Full description
quality   dvdrip telesync x264 hd bd fullhd

Rio 2 2014 HDTS x264 AC3-MiLLENiUM

Size 1.232 GB   11 seeders     Added 2016-10-23 19:58:06

http://www.imdb.com/title/tt2357291/


It's a jungle out there for Blu, Jewel and their three kids after they're hurtled Rio de Janeiro to the wilds of the Amazon. As Blu tries to fit in, he goes beak-to-beak with the vengeful Nigel, and meets the most fearsome adversary of all: his father-in-law.

Director: Carlos Saldanha
Writers: Don Rhymer (story), Carlos Saldanha (story)
Stars: Jesse Eisenberg, Anne Hathaway, Jemaine Clement
Genres: Animation | Adventure | Comedy | Family
Country: USA
Language: English | Portuguese



Rio 2 2014 HDTS x264 AC3-MiLLENiUM 

General

Source...............: NEW 720p Castellano/Echo 
IMDb Information.... : http://www.imdb.com/title/tt2357291/
Sample Included......: yes

General
Complete name : Rio 2 2014 HDTS x264 AC3-MiLLENiUM.mkv
Format : Matroska
Format version : Version 2
File size : 1.13 GiB
Duration : 1h 32mn
Overall bit rate mode : Variable
Overall bit rate : 1 747 Kbps
Encoded date : UTC 2014-04-25 19:57:23
Writing application : mkvmerge v6.9.1 ('Blue Panther') 32bit built on Apr 18 2014 18:15:44
Writing library : libebml v1.3.0 + libmatroska v1.4.1

Video
ID : 1
Format : AVC
Format/Info : Advanced Video Codec
Format profile : High@L4.1
Format settings, CABAC : Yes
Format settings, ReFrames : 3 frames
Codec ID : V_MPEG4/ISO/AVC
Duration : 1h 32mn
Bit rate mode : Variable
Bit rate : 1 520 Kbps
Maximum bit rate : 40.0 Mbps
Width : 720 pixels
Height : 304 pixels
Display aspect ratio : 2.35:1
Frame rate mode : Constant
Frame rate : 25.000 fps
Color space : YUV
Chroma subsampling : 4:2:0
Bit depth : 8 bits
Scan type : Progressive
Bits/(Pixel*Frame) : 0.278
Stream size : 1 005 MiB (87%)

Audio
ID : 2
Format : AC-3
Format/Info : Audio Coding 3
Mode extension : CM (complete main)
Format settings, Endianness : Big
Codec ID : A_AC3
Duration : 1h 32mn
Bit rate mode : Constant
Bit rate : 192 Kbps
Channel(s) : 2 channels
Channel positions : Front: L R
Sampling rate : 44.1 KHz
Bit depth : 16 bits
Compression mode : Lossy
Stream size : 127 MiB (11%)
Language : English
Default : Yes
Forced : No
Rio 2 2014 HDTS x264 AC3-MiLLENiUM/Rio 2 2014 HDTS x264 AC3-MiLLENiUM.mkv 1.211 GB
Rio 2 2014 HDTS x264 AC3-MiLLENiUM/Sample.mkv 21.061 MB
Rio 2 2014 HDTS x264 AC3-MiLLENiUM/Torrent Downloaded From ExtraTorrent.cc.txt 338 B
Gathering some info...

Register and log in Isohunt and see no captcha anymore!

4000 symbols left
Hash 19d28f4b35a26f6d9e2ea34626b572287e2e2020

Related torrents for "Rio 2 2014 HDTS x264 AC3-MiLLENiUM"

Torrent search:

x264 2014