imdb
rating

6.8
Fun and Fancy Free

Fun and Fancy Free (1947)

Animation, Music, Family

Full description
quality   dvdr dvdrip x264 hd bd fullhd

Bongo e i tre avventurieri - Fun and Fancy Free (1947 Ita/Eng) + EXTRA [1080p] [iCV-MIRCrew] [Isohunt.to]

Size 4.664 GB   13 seeders     Added 2017-03-04 22:18:12

[center]

[img]http://i.imgur.com/wkDlcoa.png[/img]

[img]http://i.imgur.com/jaQAPLa.png[/img]

[img]http://s1.postimg.org/6atkqtn5r/Cover.png[/img]


[b][color=blue]Bongo e i tre avventurieri (1947)[/color][/b]


[img]http://i.imgur.com/bWEfTCo.png[/img]

Titolo originale: Fun & Fancy Free
Nazionalità: USA
Anno: 1947
Genere: animazione, musicale, fantastico
Regia: Jack Kinney, Bill Roberts, Hamilton Luske, William Morgan
Durata: 70 min


[img]http://i.imgur.com/3WQCQCo.png[/img]

Bongo è un orsacchiotto acrobata cresciuto in circo, quando un bel giorno decide di fuggire per rifugiarsi nel bosco. Qui incontra la bella orsacchiotta Lulubelle. I due s'innamorano e lei, per dimostrare il suo amore, dà uno schiaffo a Bongo, come si usa nel bosco. Ma Bongo, che non capisce tale linguaggio, sentendosi rifiutato e offeso, scappa. Lulubelle nel rincorrerlo allo scopo di spiegargli il malinteso, s'imbatte nell'Orso Gigante che, per sbaglio, riceve da Lulubelle uno schiaffo destinato a Bongo. L'Orso Gigante credendo che la bella orsacchiotta sia innamorata di lui, l'abbraccia con trasporto. Allora Bongo, ingelosito da tale dimostrazione d'amore, sfida l'Orso Gigante in una lotta titanica..."La valle felice":C'era una volta una valle con un castello, dove un'arpa d'oro diffondeva tutt'intorno un suono dolcissimo. Un brutto giorno l'arpa d'oro sparì e la valle diventò un deserto. Fino a quando Topolino, Paperino e Goofy decisero d'andare al Castello del gigante per riprendere l'arpa...


[img]http://i.imgur.com/CB4Mdtb.png[/img]

[url=http://postimg.org/image/up9q9pf0h/][img]http://s8.postimg.org/up9q9pf0h/vlcsnap_error205.png[/img][/url] [url=http://postimg.org/image/r6xqdbe4h/][img]http://s8.postimg.org/r6xqdbe4h/vlcsnap_error303.png[/img][/url] [url=http://postimg.org/image/bmqcms401/][img]http://s8.postimg.org/bmqcms401/vlcsnap_error387.png[/img][/url] [url=http://postimg.org/image/xzy39l4xt/][img]http://s8.postimg.org/xzy39l4xt/vlcsnap_error433.png[/img][/url]

[url=http://postimg.org/image/rnnjdhr9d/][img]http://s8.postimg.org/rnnjdhr9d/vlcsnap_error711.png[/img][/url] [url=http://postimg.org/image/y2mka5xz5/][img]http://s8.postimg.org/y2mka5xz5/vlcsnap_error732.png[/img][/url] [url=http://postimg.org/image/ytfafy0ch/][img]http://s8.postimg.org/ytfafy0ch/vlcsnap_error807.png[/img][/url] [url=http://postimg.org/image/pmwzsnv41/][img]http://s8.postimg.org/pmwzsnv41/vlcsnap_error946.png[/img][/url]


[img]http://i.imgur.com/Nfvwker.png[/img]

General
Unique ID                   : 206125819735235794037041334356304792364 (0x9B12638BEEA34E0D99611D3A19450B2C)
Complete name               : F:\FILE DA CONDIVIDERE\Bongo e i tre avventurieri (1947) - 1080p EXTRA iCV-MIRCrew\Bongo e i tre avventurieri (1947) - 1080p iCV-MIRCrew.mkv
Format                      : Matroska
Format version              : Version 4 / Version 2
File size                   : 4.12 GiB
Duration                    : 1 h 13 min
Overall bit rate            : 8 074 kb/s
Encoded date                : UTC 2017-02-28 22:25:39
Writing application         : mkvmerge v9.8.0 ('Kuglblids') 64bit
Writing library             : libebml v1.3.4 + libmatroska v1.4.5
Cover                       : Yes
Attachments                 : cover.png / small_cover.png

Video
ID                          : 1
Format                      : AVC
Format/Info                 : Advanced Video Codec
Format profile              : High@L4.1
Format settings, CABAC      : Yes
Format settings, ReFrames   : 4 frames
Codec ID                    : V_MPEG4/ISO/AVC
Duration                    : 1 h 12 min
Bit rate                    : 7 070 kb/s
Width                       : 1 440 pixels
Height                      : 1 080 pixels
Display aspect ratio        : 4:3
Frame rate mode             : Constant
Frame rate                  : 23.976 (24000/1001) FPS
Color space                 : YUV
Chroma subsampling          : 4:2:0
Bit depth                   : 8 bits
Scan type                   : Progressive
Bits/(Pixel*Frame)          : 0.190
Stream size                 : 3.59 GiB (87%)
Writing library             : x264 core 142 r2409 d6b4e63
Encoding settings           : cabac=1 / ref=4 / deblock=1:-1:-1 / analyse=0x3:0x113 / me=umh / subme=7 / psy=1 / psy_rd=1.00:0.00 / mixed_ref=1 / me_range=16 / chroma_me=1 / trellis=1 / 8x8dct=1 / cqm=0 / deadzone=21,11 / fast_pskip=1 / chroma_qp_offset=-2 / threads=12 / lookahead_threads=2 / sliced_threads=0 / nr=0 / decimate=1 / interlaced=0 / bluray_compat=0 / constrained_intra=0 / bframes=3 / b_pyramid=2 / b_adapt=2 / b_bias=0 / direct=3 / weightb=1 / open_gop=0 / weightp=2 / keyint=250 / keyint_min=23 / scenecut=40 / intra_refresh=0 / rc_lookahead=40 / rc=2pass / mbtree=1 / bitrate=7070 / ratetol=1.0 / qcomp=0.60 / qpmin=0 / qpmax=69 / qpstep=4 / cplxblur=20.0 / qblur=0.5 / vbv_maxrate=50000 / vbv_bufsize=50000 / nal_hrd=none / filler=0 / ip_ratio=1.40 / aq=1:1.00
Language                    : English
Default                     : Yes
Forced                      : No

Audio #1
ID                          : 2
Format                      : AC-3
Format/Info                 : Audio Coding 3
Mode extension              : CM (complete main)
Format settings, Endianness : Big
Codec ID                    : A_AC3
Duration                    : 1 h 12 min
Bit rate mode               : Constant
Bit rate                    : 384 kb/s
Channel(s)                  : 6 channels
Channel positions           : Front: L C R, Side: L R, LFE
Sampling rate               : 48.0 kHz
Frame rate                  : 31.250 FPS (1536 spf)
Bit depth                   : 16 bits
Compression mode            : Lossy
Stream size                 : 200 MiB (5%)
Language                    : Italian
Default                     : Yes
Forced                      : No

Audio #2
ID                          : 3
Format                      : AC-3
Format/Info                 : Audio Coding 3
Mode extension              : CM (complete main)
Format settings, Endianness : Big
Codec ID                    : A_AC3
Duration                    : 1 h 12 min
Bit rate mode               : Constant
Bit rate                    : 640 kb/s
Channel(s)                  : 6 channels
Channel positions           : Front: L C R, Side: L R, LFE
Sampling rate               : 48.0 kHz
Frame rate                  : 31.250 FPS (1536 spf)
Bit depth                   : 16 bits
Compression mode            : Lossy
Stream size                 : 333 MiB (8%)
Language                    : English
Default                     : No
Forced                      : No

Text #1
ID                          : 4
Format                      : VobSub
Muxing mode                 : zlib
Codec ID                    : S_VOBSUB
Codec ID/Info               : Picture based subtitle format used on DVDs
Duration                    : 1 h 12 min
Bit rate                    : 233 b/s
Count of elements           : 107
Stream size                 : 124 KiB (0%)
Title                       : FORCED
Language                    : Italian
Default                     : Yes
Forced                      : Yes

Text #2
ID                          : 5
Format                      : VobSub
Muxing mode                 : zlib
Codec ID                    : S_VOBSUB
Codec ID/Info               : Picture based subtitle format used on DVDs
Duration                    : 1 h 12 min
Bit rate                    : 1 999 b/s
Count of elements           : 794
Stream size                 : 1.04 MiB (0%)
Language                    : Italian
Default                     : No
Forced                      : No

Text #3
ID                          : 6
Format                      : UTF-8
Codec ID                    : S_TEXT/UTF8
Codec ID/Info               : UTF-8 Plain Text
Duration                    : 1 h 12 min
Bit rate                    : 58 b/s
Count of elements           : 877
Stream size                 : 31.3 KiB (0%)
Language                    : English
Default                     : No
Forced                      : No


[img]http://i.imgur.com/pBGfMGu.png[/img]

In questa versione è compreso l'extra:

1 - La realizzazione di Bongo e i tre avventurieri


[/center]
Bongo e i tre avventurieri (1947) - 1080p iCV-MIRCrew.mkv 4.422 GB
EXTRA - iCV-MIRCrew/1 - La realizzazione di Bongo e i tre avventurieri.mkv 241.393 MB
Gathering some info...

Register and log in Isohunt and see no captcha anymore!

4000 symbols left
Hash e80971720ee5d0baa84448ca71e093f3f99d46c7

Related torrents for "Bongo e i tre avventurieri - Fun and Fancy Free (1947 Ita/Eng) + EXTRA [1080p] [iCV-MIRCrew] [Isohunt.to]"

Torrent search:

italian english 1947 fullhd